Содержимое о корзине
Товаров:
Сумма, руб:
Пользователям
Рубрикатор
DVD
Информация
Хиты продаж
Игры Богов Акт 1-8 (Сергей Стрижак) [2001-2011, Документальный, DVDRip>DVD5]
Игры Богов Акт 1-8 (Сергей Стрижак) [2001-2011, Документальный, DVDRip>DVD5]
Цена: 600 руб Подробнее Добавить в корзину

Стрижка макияж

Cортировать по ценам: по возрастанию, по убыванию; по наименованию: А-Я, Я-А.
« Начало | 1-10 | 11-20 | 21-30 | 31-40 | 41-50 | 51-60 | 61-70 | Конец » Всего: 263

Код: 1785556

"Макияж для тебя"(Авторский курс Ольги Гордиас) [2008 г., Уход за собой, DVD5]

"Макияж для тебя"(Авторский курс Ольги Гордиас) [2008 г., Уход за собой, DVD5]

Цена: 200 руб

Статус: Есть на складе [ x ]

"Макияж для тебя"
"Макияж для тебя"(Авторский курс Ольги Гордиас)



Год выпуска: 2008
Страна: Россия
Жанр: Уход за собой
Продолжительность: 1:47:28

Описание:
Ольга Гордиас:визажист-стилист,мастер международного класса,член сборной России по декоративной косметике,судья союза парикмахеров и косметологов России,чемпион России и Восточной Европы,абсолютный чемпион Европы,призёр чемпионатов Мира по декоративной косметике.

Размер: 3543.04MB
Количество дисков: 1
Количество:
-
+
Купить
Доступно: Общая сумма:

  Добавить для сравнения

Код: 1140497

3D дизайн ногтей (акрил) [2003 г., Обучающее видео]

3D дизайн ногтей (акрил) [2003 г., Обучающее видео]

Цена: 200 руб

Статус: Есть на складе [ x ]

3D дизайн ногтей (акрил)
Год выпуска: 2003
Страна: Китай
Жанр: Обучающее видео
Продолжительность: ~ 45 минут
Описание:
В фильме подробно описаны несколько вариантов объёмного дизайна ногтей с применением акрила.

Размер: 456MB
Количество дисков: 1
Количество:
-
+
Купить
Доступно: Общая сумма:

  Добавить для сравнения

Код: 2667880

ABC- Cutting Hair the Sassoon Way (3DVD копия с оригинала мультиязычная) [2007 г., обучающее видео, DVD5]

ABC- Cutting Hair the Sassoon Way (3DVD копия с оригинала мультиязычная) [2007 г., обучающее видео, DVD5]

Цена: 600 руб

Статус: Есть на складе [ x ]

ABC- Cutting Hair the Sassoon Way (3DVD копия с оригинала мультиязычная)
Год выпуска: 2007
Страна: Англия
Жанр: обучающее видео
Описание:
Атрибут видео:

Размер: 10250.24MB
Количество дисков: 3
Количество:
-
+
Купить
Доступно: Общая сумма:

  Добавить для сравнения

Код: 3073266

ALDO COPPOLA. Метод использования аксессуаров Spot Balls

ALDO COPPOLA. Метод использования аксессуаров Spot Balls

Цена: 200 руб

Статус: Есть на складе [ x ]

ALDO COPPOLA. Метод использования аксессуаров Spot Balls
Год выпуска: 2008
Страна: Италия
Жанр: Парикмахерское искусство
Продолжительность: 9 минут
Язык: Итальянский
Описание: Метод использования аксессуаров Spot Balls
от Richesse and Platinium L"OREAL PROFESSIONNEL PARIS
Качество: DVDRip
Формат: MPEG
Видео кодек: MPEG Video
Аудио кодек: MPEG Audio
Видео: MPEG1 Video, 720x576, (16:9), 29.97fps, 1 106 Kbps
Аудио: MPEG Audio, 44100Hz, stereo, 224KbpsGeneral
Complete name : G:\VTS_01_1.mpg
Format : MPEG-PS
File size : 90.6 MiB
Duration : 9mn 8s
Overall bit rate : 1 385 Kbps
Video
ID : 224 (0xE0)
Format : MPEG Video
Format version : Version 1
Format settings, Matrix : Default
Duration : 9mn 8s
Bit rate mode : Variable
Bit rate : 1 106 Kbps
Width : 720 pixels
Height : 576 pixels
Display aspect ratio : 16:9
Frame rate : 29.970 fps
Standard : PAL
Scan type : Progressive
Bits/(Pixel*Frame) : 0.089
Stream size : 72.4 MiB (80%)
Audio
ID : 192 (0xC0)
Format : MPEG Audio
Format version : Version 1
Format profile : Layer 2
Duration : 9mn 8s
Bit rate mode : Constant
Bit rate : 224 Kbps
Channel(s) : 2 channels
Sampling rate : 44.1 KHz
Resolution : 16 bits
Stream size : 14.6 MiB (16%)


Размер: 91 MB
Количество дисков: 1
Количество:
-
+
Купить
Доступно: Общая сумма:

  Добавить для сравнения

Код: 3079810

American CREW / Мужская стрижка ECHO (Видеоурок)

American CREW / Мужская стрижка ECHO  (Видеоурок)

Цена: 200 руб

Статус: Есть на складе [ x ]

American CREW / Мужская стрижка ECHO
Год выпуска: 2006
Страна: USA
Тематика: Парикмахерское искусство
Тип раздаваемого материала: Видеоурок
Продолжительность: 00:15:03
Язык: Английский
Перевод: Отсутствует
Описание: Разбирается мужская стрижка ECHO от American CREW.
Качество: DVDRip
Формат: WMV
Видео кодек: Windows Media Video 9
Аудио кодек: Windows Media Audio
Видео: 768х576, 4:3, 3149 Kbps, 25.000 fps
Аудио: 162 Kbps, 2 channels, 48.0 KHzGeneral
Complete name : F:\Фильм.wmv
Format : Windows Media
File size : 358 MiB
Duration : 15mn 3s
Overall bit rate mode : Variable
Overall bit rate : 3 328 Kbps
Maximum Overall bit rate : 4 392 Kbps
Encoded date : UTC 2010-07-26 12:20:29.390
Writing application : 6.0.6002.18005 / Windows Movie Maker
Application : Windows Movie Maker 6.0.6002.18005
Video
ID : 2
Format : VC-1
Format profile : [email protected]
Codec ID : WMV3
Codec ID/Info : Windows Media Video 9
Codec ID/Hint : WMV3
Description of the codec : Windows Media Video 9
Duration : 15mn 3s
Bit rate mode : Variable
Bit rate : 3 149 Kbps
Width : 768 pixels
Height : 576 pixels
Display aspect ratio : 4:3
Frame rate : 25.000 fps
Bit depth : 8 bits
Scan type : Progressive
Compression mode : Lossy
Bits/(Pixel*Frame) : 0.285
Stream size : 339 MiB (95%)
Language : English (US)
Audio
ID : 1
Format : WMA
Format version : Version 2
Codec ID : 161
Codec ID/Info : Windows Media Audio
Description of the codec : Windows Media Audio 9.2 - VBR Quality 90, 48 kHz, stereo 1-pass VBR
Duration : 15mn 3s
Bit rate mode : Variable
Bit rate : 162 Kbps
Channel(s) : 2 channels
Sampling rate : 48.0 KHz
Bit depth : 16 bits
Stream size : 17.4 MiB (5%)
Language : English (US)


Размер: 358 MB
Количество дисков: 1
Количество:
-
+
Купить
Доступно: Общая сумма:

  Добавить для сравнения

Код: 3080596

American CREW / Мужская стрижка HONOUR (Видеоурок)

American CREW / Мужская стрижка HONOUR  (Видеоурок)

Цена: 200 руб

Статус: Есть на складе [ x ]

American CREW / Мужская стрижка HONOUR
Год выпуска: 2006
Страна: USA
Тематика: Парикмахерское искусство
Тип раздаваемого материала: Видеоурок
Продолжительность: 00:15:18
Язык: Английский
Перевод: Отсутствует
Описание: Разбирается мужская стрижка HONOUR от American CREW.
Качество: DVDRip
Формат: WMV
Видео кодек: Windows Media Video 9
Аудио кодек: Windows Media Audio
Видео: 768х576, 4:3, 3535 Kbps, 25.000 fps
Аудио: 163 Kbps, 2 channels, 48.0 KHzGeneral
Complete name : F:\Фильм_0001.wmv
Format : Windows Media
File size : 407 MiB
Duration : 15mn 18s
Overall bit rate mode : Variable
Overall bit rate : 3 717 Kbps
Maximum Overall bit rate : 4 524 Kbps
Encoded date : UTC 2010-07-26 22:05:47.490
Writing application : 6.0.6002.18005 / Windows Movie Maker
Application : Windows Movie Maker 6.0.6002.18005
Video
ID : 2
Format : VC-1
Format profile : [email protected]
Codec ID : WMV3
Codec ID/Info : Windows Media Video 9
Codec ID/Hint : WMV3
Description of the codec : Windows Media Video 9
Duration : 15mn 18s
Bit rate mode : Variable
Bit rate : 3 535 Kbps
Width : 768 pixels
Height : 576 pixels
Display aspect ratio : 4:3
Frame rate : 25.000 fps
Bit depth : 8 bits
Scan type : Progressive
Compression mode : Lossy
Bits/(Pixel*Frame) : 0.320
Stream size : 387 MiB (95%)
Language : English (US)
Audio
ID : 1
Format : WMA
Format version : Version 2
Codec ID : 161
Codec ID/Info : Windows Media Audio
Description of the codec : Windows Media Audio 9.2 - VBR Quality 90, 48 kHz, stereo 1-pass VBR
Duration : 15mn 18s
Bit rate mode : Variable
Bit rate : 163 Kbps
Channel(s) : 2 channels
Sampling rate : 48.0 KHz
Bit depth : 16 bits
Stream size : 17.9 MiB (4%)
Language : English (US)


Размер: 407 MB
Количество дисков: 1
Количество:
-
+
Купить
Доступно: Общая сумма:

  Добавить для сравнения

Код: 3081125

American CREW / Мужская стрижка NOD (Видеоурок)

American CREW / Мужская стрижка NOD  (Видеоурок)

Цена: 200 руб

Статус: Есть на складе [ x ]

American CREW / Мужская стрижка NOD
Год выпуска: 2006
Страна: USA
Тематика: Парикмахерское искусство
Тип раздаваемого материала: Видеоурок
Продолжительность: 00:15:47
Язык: Английский
Перевод: Отсутствует
Описание: Разбирается мужская стрижка NOD от American CREW.
Качество: DVDRip
Формат: WMV
Видео кодек: Windows Media Video 9
Аудио кодек: Windows Media Audio
Видео: 768х576, 4:3, 3679 Kbps, 25.000 fps
Аудио: 164 Kbps, 2 channels, 48.0 KHzGeneral
Complete name : F:\Фильм_0002.wmv
Format : Windows Media
File size : 436 MiB
Duration : 15mn 47s
Overall bit rate mode : Variable
Overall bit rate : 3 863 Kbps
Maximum Overall bit rate : 4 388 Kbps
Encoded date : UTC 2010-07-26 23:49:06.620
Writing application : 6.0.6002.18005 / Windows Movie Maker
Application : Windows Movie Maker 6.0.6002.18005
Video
ID : 2
Format : VC-1
Format profile : [email protected]
Codec ID : WMV3
Codec ID/Info : Windows Media Video 9
Codec ID/Hint : WMV3
Description of the codec : Windows Media Video 9
Duration : 15mn 47s
Bit rate mode : Variable
Bit rate : 3 679 Kbps
Width : 768 pixels
Height : 576 pixels
Display aspect ratio : 4:3
Frame rate : 25.000 fps
Bit depth : 8 bits
Scan type : Progressive
Compression mode : Lossy
Bits/(Pixel*Frame) : 0.333
Stream size : 416 MiB (95%)
Language : English (US)
Audio
ID : 1
Format : WMA
Format version : Version 2
Codec ID : 161
Codec ID/Info : Windows Media Audio
Description of the codec : Windows Media Audio 9.2 - VBR Quality 90, 48 kHz, stereo 1-pass VBR
Duration : 15mn 47s
Bit rate mode : Variable
Bit rate : 164 Kbps
Channel(s) : 2 channels
Sampling rate : 48.0 KHz
Bit depth : 16 bits
Stream size : 18.5 MiB (4%)
Language : English (US)


Размер: 436 MB
Количество дисков: 1
Количество:
-
+
Купить
Доступно: Общая сумма:

  Добавить для сравнения

Код: 2319234

Essential looks glamour collektion Шварцкор [2006 г., стрижки мужские и женские]

Essential looks glamour collektion Шварцкор [2006 г., стрижки мужские и женские]

Цена: 400 руб

Статус: Есть на складе [ x ]

Essential looks glamour collektion Шварцкор
Essential looks glamour collektion от Шварцкоп
Год выпуска: 2006
Страна: германия
Жанр: стрижки мужские и женские
Продолжительность: 3 часа
Язык:английский Качество:DVD-9
Формат:DVD Video
Видео кодек:XviD
Аудио кодек:AC3
Видео:PAL 4:3 (720x576) VBR
Аудио:Not specified (Dolby AC3, 2 ch)
Описание:
стрижки мужские и женские от коллекции шварцкоп

Размер: 7219.2MB
Количество дисков: 2
Количество:
-
+
Купить
Доступно: Общая сумма:

  Добавить для сравнения

Код: 2901692

Estel Professional Illusion (коллекция осень-зима 2009-2010)

Estel Professional Illusion (коллекция осень-зима 2009-2010)

Цена: 200 руб

Статус: Есть на складе [ x ]

Estel Professional_Illusion (коллекция осень-зима 2009-2010)
Год выпуска: 2009
Страна: Россия
Жанр: парикмахерское искусство
Продолжительность: 240 мин
Язык: Русский
Описание:
Мастер-класс топ-стилистов Академии ESTEL Professional
Финал конкурса детского рисунка "Эстель. Самая красивая"
Финал международного конкурса по парикмахерскому искусству "Звезда Эстель"
Шоу-показ детских причесок "Мой ангел"
Backtage
Шаг за шагом
Слайд-шоу
Качество: DVD5
Формат: DVD Video
Видео кодек: MPEG2
Аудио кодек: Dolby AC3
Видео: PAL 720x576 (4:3) 25.00fps 8000Kbps
Аудио: Dolby AC3 48000Hz stereo 192Kbps

Размер: 4.36 GB
Количество дисков: 1
Количество:
-
+
Купить
Доступно: Общая сумма:

  Добавить для сравнения

Код: 2232456

Estel Professional [2009 г., парикмахерское искусство, DVD5]

Estel Professional [2009 г., парикмахерское искусство, DVD5]

Цена: 200 руб

Статус: Есть на складе [ x ]

Estel Professional
Год выпуска: 2009
Страна: Россия
Жанр: парикмахерское искусство
Продолжительность: 104 мин

Описание:
Компания Estel Professional

Размер: 4249.6MB
Количество дисков: 1
Количество:
-
+
Купить
Доступно: Общая сумма:

  Добавить для сравнения

« Начало | 1-10 | 11-20 | 21-30 | 31-40 | 41-50 | 51-60 | 61-70 | Конец » Всего: 263
Часто просматриваемые: Dog Brothers Snaggle Tooth Variations
Александровс кий сад - 1. Серии: 12 из 12 (Олег Рясков, Алексей Пиманов)
Ираклий Андроников "Воспоминания о Большом зале" (Алина Казьмина)
Прошедшее время (8 передач. 6.02.2010 - 13.02.2010, DivX, TVRip]
ЛЕТНИЙ БИАТЛОН. Чемпионат мира. Л/роллеры. Спринт. Женщины. ТК СПОРТ [Оберхоф, Германия, SATRip]
Woodworking Vol. 1: Woodworking DVD [2004 г., Деревообработка, DVD5]
Great Psdlayer collection vol 59
Hyperhip Media - Jazz Manouche - The Art of Accompaniment featuring Denis Chang (Видеоурок)
Россия в войне: Кровь на снегу (10 серий из 10) / Russia`s War. Blood upon the snow (В. Лисакович, И. Гутман и др.) [1996 г., Документальный, DVDRip]
Доницетти - Любовный напиток / Donizetti - L'elisir d'amore (Alagna, Gheorghiu / Frank Dunlop)
Яндекс.Метрика