Содержимое о корзине
Товаров:
Сумма, руб:
Пользователям
Рубрикатор
DVD
Информация

Органический виноградник Попова (Видеоурок)

Код: 3206988

Органический виноградник Попова  (Видеоурок)

Цена: 200 руб

Статус: Есть на складе
Органический виноградник Попова
Страна: Украина
Тематика: Документальный, образовательный
Тип раздаваемого материала: Видеоурок
Продолжительность: 02:25:00
Год выпуска: 2007
Язык: Русский
Перевод: Не требуется
Описание: Виноградарь Попов делится редким опытом выращивания винограда без химии и минеральных удобрений. Сам он использует и рекомендует только проверенные новые устойчивые сорта. Наглядно и методично разъясняет особенности их размножения, посадки и пересадки, ухода, формировки и многое другое.
Доп. информация: Рип с этого DVD:
Качество : DVDRip
Формат: AVI
Информация о Видео:Format : AVI
Format/Info : Audio Video Interleave
File size : 356 MiB
Duration : 43mn 10s
Overall bit rate : 1 154 Kbps
Writing application : MEncoder SVN-r29352(20090610-gcc4.3.3)
Writing library : MPlayer
Video
ID : 0
Format : AVC
Format/Info : Advanced Video Codec
Format profile : [email protected]
Format settings, CABAC : No
Format settings, ReFrames : 1 frame
Codec ID : avc1
Duration : 43mn 10s
Bit rate : 1 024 Kbps
Width : 720 pixels
Height : 576 pixels
Display aspect ratio : 4:3
Frame rate : 24.000 fps
Standard : PAL
Color space : YUV
Chroma subsampling : 4:2:0
Bit depth : 8 bits
Scan type : Progressive
Bits/(Pixel*Frame) : 0.103
Stream size : 313 MiB (88%)
Writing library : x264 core 67 r1163+17 7d945df
Encoding settings : cabac=0 / ref=1 / deblock=1:0:0 / analyse=0x1:0x111 / me=hex / subme=6 / psy_rd=1.0:0.0 / mixed_ref=0 / me_range=16 / chroma_me=1 / trellis=0 / 8x8dct=0 / cqm=0 / deadzone=21,11 / chroma_qp_offset=-2 / threads=3 / nr=0 / decimate=1 / mbaff=0 / bframes=0 / keyint=250 / keyint_min=25 / scenecut=40 / rc=abr / bitrate=1024 / ratetol=1.0 / qcomp=0.60 / qpmin=10 / qpmax=51 / qpstep=4 / ip_ratio=1.40 / aq=1:1.00
Audio
ID : 1
Format : MPEG Audio
Format version : Version 1
Format profile : Layer 3
Mode : Joint stereo
Mode extension : MS Stereo
Codec ID : 55
Codec ID/Hint : MP3
Duration : 43mn 10s
Bit rate mode : Constant
Bit rate : 128 Kbps
Channel(s) : 2 channels
Sampling rate : 44.1 KHz
Stream size : 39.5 MiB (11%)
Alignment : Aligned on interleaves
Interleave, duration : 26 ms (0.63 video frame)
Interleave, preload duration : 522 ms





Размер: 1.21 GB
Количество дисков: 1


Рекомендуем:
Органический виноградник Попова (Видеоурок)
AMG Mercedes C-Class DTM 2008 Руководство по сборке
Всё о выращивании кабачков (Видеоурок)
Как собрать Кубик Рубика (Rubik's Cube) 2х2х2, 3х3х3, 4х4х4, 5х5х5, 7х7х7 Rubik's Magic, Master Magic, Square-1, Megaminx, Mirror Blocks, Mastermorphix, Crazy 4x4, Пирамидку - обучающее видео!
Секреты обольщения. Эротический этикет. Части 1 и 2. (Видеоурок)
Количество:
-
+
Купить
Доступно: Общая сумма:

Добавить для сравнения

Вернуться назад


Часто просматриваемые: Органический виноградник Попова (Видеоурок)
Шейпинг. Формула гармонии плюс. Начни сегодня [2005 г., Спортивная видеопрограмма, DVD5]
Клуб самоубийц, или Приключения титулованной особы (Приключения принца Флоризеля),(Евгений Татарский) [1979 г., комедия, приключения, криминал, DVD9]
Тахир и Зухра (Наби Ганиев)
Казаковская филигрань (Юрий Беспалов)
Единственный дубль (В. Филатова)
Стране Советов - 70 лет
На гусиных перелетах
Генеральный секретарь (Ко дню рождения Л.И.Брежнева, 1976 г.) [2007 г., Док. фильм, TVRip]
Доктор Хаус (Сезон 1, Серии 1-10, 12) / HOUSE M.D. [2004 г., Комедия/Драма, HDTV - 720p] (Кравец)
 
Яндекс.Метрика