American CREW / Мужская стрижка ECHO (Видеоурок)

Код Товара: 3079810
Наличие: В наличии

  • 200.00р.




American CREW / Мужская стрижка ECHO
Год выпуска: 2006
Страна: USA
Тематика: Парикмахерское искусство
Тип раздаваемого материала: Видеоурок
Продолжительность: 00:15:03
Язык: Английский
Перевод: Отсутствует
Описание: Разбирается мужская стрижка ECHO от American CREW.
Качество: DVDRip
Формат: WMV
Видео кодек: Windows Media Video 9
Аудио кодек: Windows Media Audio
Видео: 768х576, 4:3, 3149 Kbps, 25.000 fps
Аудио: 162 Kbps, 2 channels, 48.0 KHzGeneral
Complete name : F:\Фильм.wmv
Format : Windows Media
File size : 358 MiB
Duration : 15mn 3s
Overall bit rate mode : Variable
Overall bit rate : 3 328 Kbps
Maximum Overall bit rate : 4 392 Kbps
Encoded date : UTC 2010-07-26 12:20:29.390
Writing application : 6.0.6002.18005 / Windows Movie Maker
Application : Windows Movie Maker 6.0.6002.18005
Video
ID : 2
Format : VC-1
Format profile : [email protected]
Codec ID : WMV3
Codec ID/Info : Windows Media Video 9
Codec ID/Hint : WMV3
Description of the codec : Windows Media Video 9
Duration : 15mn 3s
Bit rate mode : Variable
Bit rate : 3 149 Kbps
Width : 768 pixels
Height : 576 pixels
Display aspect ratio : 4:3
Frame rate : 25.000 fps
Bit depth : 8 bits
Scan type : Progressive
Compression mode : Lossy
Bits/(Pixel*Frame) : 0.285
Stream size : 339 MiB (95%)
Language : English (US)
Audio
ID : 1
Format : WMA
Format version : Version 2
Codec ID : 161
Codec ID/Info : Windows Media Audio
Description of the codec : Windows Media Audio 9.2 - VBR Quality 90, 48 kHz, stereo 1-pass VBR
Duration : 15mn 3s
Bit rate mode : Variable
Bit rate : 162 Kbps
Channel(s) : 2 channels
Sampling rate : 48.0 KHz
Bit depth : 16 bits
Stream size : 17.4 MiB (5%)
Language : English (US)


Размер: 358 MB
Количество дисков: 1
Примечание: HTML разметка не поддерживается! Используйте обычный текст.

Яндекс.Метрика